<?xml version="1.0" standalone="no"?>
<!DOCTYPE svg PUBLIC "-//W3C//DTD SVG 1.1//EN" "http://www.w3.org/Graphics/SVG/1.1/DTD/svg11.dtd" >
<svg xmlns="http://www.w3.org/2000/svg" xmlns:xlink="http://www.w3.org/1999/xlink" version="1.1">
<metadata>
Created by FontForge 20201107 at Mon Oct  7 15:50:41 2024
 By 
Copyright (c) 2012 by SoftMaker Software GmbH and its licensors. All rights reserved. |DCNT
</metadata>
<defs>
<font id="Greyhound" horiz-adv-x="1280" >
  <font-face 
    font-family="Greyhound"
    font-weight="400"
    font-stretch="normal"
    units-per-em="2048"
    panose-1="0 0 0 0 0 0 0 0 0 0"
    ascent="1620"
    descent="-428"
    x-height="1061"
    cap-height="1475"
    bbox="-139 -440 2044 1944.5"
    underline-thickness="40"
    underline-position="-271"
    unicode-range="U+000D-EC04"
  />
<missing-glyph horiz-adv-x="593" 
 />
    <glyph glyph-name=".notdef" horiz-adv-x="593" 
 />
    <glyph glyph-name=".null" horiz-adv-x="0" 
 />
    <glyph glyph-name="nonmarkingreturn" horiz-adv-x="682" 
 />
    <glyph glyph-name="NULL" horiz-adv-x="0" 
 />
    <glyph glyph-name="NULL" horiz-adv-x="0" 
 />
    <glyph glyph-name="CR" unicode="&#xd;" horiz-adv-x="593" 
 />
    <glyph glyph-name="space" unicode=" " horiz-adv-x="593" 
 />
    <glyph glyph-name="exclam" unicode="!" horiz-adv-x="518" 
d="M315 0q-35 -18 -73 -18q-82 0 -123 65q-26 47 -12 98t61 76q54 29 111.5 15t87.5 -62q29 -44 13.5 -96t-65.5 -78zM301 772l-12 -141l-8 -78l-7 -88l-6 -113h-37l-12 199l-22 219l-21 223l-10 113l-8 100q-11 134 -8 187q3 46 32 75q25 26 62 26t63 -26q28 -28 31 -73
q4 -62 -4 -189l-8 -127l-7 -84l-6 -84z" />
    <glyph glyph-name="quotedbl" unicode="&#x22;" horiz-adv-x="655" 
d="M223 1204l-143 -194l-19 -25l-47 -59l-39 -47l15 55l20 72l31 106q79 275 117 340q41 65 108 39q70 -21 61 -88t-104 -199zM469 1204l-143 -194l-19 -25l-47 -59l-39 -47l15 55l20 72l31 106q80 278 116 340q41 65 109 39q70 -21 61 -88t-104 -199z" />
    <glyph glyph-name="numbersign" unicode="#" horiz-adv-x="913" 
d="M303 487l-121 -487h-106l121 487h-197l27 103h196l72 295h-201l25 102h203l120 488h107l-121 -488h195l120 488h107l-121 -488h184l-24 -102h-187l-71 -295h188l-26 -103h-189l-121 -487h-106l121 487h-195zM524 590l72 295h-195l-73 -295h196z" />
    <glyph glyph-name="dollar" unicode="$" horiz-adv-x="1052" 
d="M98 264l-4 15l-6 20l68 18l6 -16l4 -12l14 -29q126 -220 316 -205l-2 623q-146 35 -256 139q-42 42 -82 103q-45 73 -53.5 156t16.5 155t80.5 130.5t132.5 84.5q6 2 88 22q43 9 74 9v143l88 -2v-141q96 -3 190 -64q63 -43 109 -115q1 -4 8 -16t8 -14l-84 -31
q-43 117 -184 166q-40 12 -47 12l2 -524q122 -33 227 -131q55 -55 86 -109q59 -100 65 -209.5t-33.5 -199.5t-121 -157t-189.5 -87l-20 -4l-14 -2v-189h-88v185q-32 0 -76 8q-158 30 -240 135q-57 63 -82 133zM680 567q-44 47 -96 74v-573q80 20 132 87.5t57 156t-42 184.5
q-25 45 -51 71zM494 926v487q-94 -12 -152 -82q-87 -98 -66 -204t142 -173q33 -20 76 -28z" />
    <glyph glyph-name="percent" unicode="%" horiz-adv-x="1785" 
d="M612 0l480 1475h84l-480 -1475h-84zM631 758q-163 -76 -330 0q-99 48 -156 139.5t-57 206.5q0 36 6 70q30 194 211 282q102 48 219 33q85 -12 156 -62q132 -90 158 -253q20 -135 -36 -248.5t-171 -167.5zM1483 16q-167 -76 -330 0q-99 47 -155 139.5t-56 209.5q0 39 4 67
q34 200 213 285q98 49 217 31q86 -12 158 -62q134 -90 158 -252q20 -135 -37 -249.5t-172 -168.5zM250 1284q-33 -67 -33 -180q0 -115 33 -182q46 -101 115 -138q99 -52 202 2q80 44 121 149t23 241q-21 184 -140 254q-106 57 -206 0q-70 -42 -115 -146zM1104 545
q-33 -73 -33 -180q0 -120 33 -185q42 -95 115 -137q94 -52 200 4q80 42 120.5 146.5t23.5 240.5q-21 187 -140 254q-102 62 -204 0q-70 -42 -115 -143z" />
    <glyph glyph-name="ampersand" unicode="&#x26;" horiz-adv-x="1316" 
d="M383 782l57 39l13 8l-17 29l-14 27l-37 53q0 1 -8 13.5t-12 19.5q-79 133 -81 221t72 178q105 129 283 111q168 -21 233 -156q66 -135 -22 -303q-16 -32 -59 -84q-61 -69 -95 -98l-10 -9l-14 -10l358 -485l14 10q63 51 87.5 108.5t23.5 149.5l-2 129h61l7 -133
q9 -164 -115 -291l-19 -16l-16 -14l213 -279h-209l-129 166l-24 -16l-35 -27l-31 -21q-26 -19 -49 -28q-62 -36 -115 -54q-356 -116 -532 113q-40 51 -58 111q-73 226 152 438q58 51 129 100zM520 1047l80 -132q17 17 23 19q39 31 63 61q103 118 94 240q-9 87 -61 145
q-42 48 -105 41.5t-110 -65.5q-96 -125 16 -309zM907 221l-366 498l-29 -21q-19 -12 -78 -63q-105 -104 -121 -197t52 -198q154 -239 426 -101q48 23 90 60q14 10 26 22z" />
    <glyph glyph-name="quotesingle" unicode="'" horiz-adv-x="428" 
d="M233 1219l-143 -195l-18 -25l-47 -59l-39 -47l14 55l20 72l31 106q80 274 117 338q41 65 108 39q70 -21 61 -88t-104 -196z" />
    <glyph glyph-name="parenleft" unicode="(" horiz-adv-x="555" 
d="M94 764q27 371 232 723q5 9 21 35t18 30h176l-54 -90q-171 -313 -192 -721q-6 -117 0 -231q21 -408 192 -721q12 -25 54 -90h-176l-39 63q-272 467 -232 1002z" />
    <glyph glyph-name="parenright" unicode=")" horiz-adv-x="555" 
d="M229 -238l-39 -63h-176q42 65 54 90q171 313 192 721q6 114 0 231q-21 408 -192 721l-54 90h176q2 -4 18 -30t21 -35q272 -467 232 -1002q-27 -378 -232 -723z" />
    <glyph glyph-name="asterisk" unicode="*" horiz-adv-x="665" 
d="M360 1286l-14 -57l-4 -15l53 52q7 2 17 12q46 35 76 55.5t51 29.5t31.5 7t15.5 -14q9 -14 2 -31q-21 -37 -123 -90l-39 -18l-59 -23l-11 -4l74 -25l27 -10q93 -44 121.5 -71t11.5 -52q-14 -14 -31 -14q-31 0 -55 18l-101 72l-8 6l-53 49l18 -69q5 -23 11 -56
q15 -100 -2 -129q-12 -17 -34 -18t-34 16q-22 28 -10 142q2 20 8 45l18 69q-2 -6 -16 -20q-186 -157 -219 -101q-9 22 6 37q36 39 86 62q92 42 129 45l-20 8l-52 20l-22 9q-92 54 -119.5 81t-15.5 48q9 17 26 14q45 0 133 -70q21 -17 31 -30q15 -24 43 -52q1 -2 5 -2t5 2
q13 8 -14 72q-8 20 -12 45q-15 107 10 152q8 14 29 14q27 -2 34.5 -40t0.5 -140q0 -3 -1 -7.5t-2 -11t-2 -12.5z" />
    <glyph glyph-name="plus" unicode="+" horiz-adv-x="1241" 
d="M700 651v-432h-168v432h-432v170h432v434h168v-432h433v-172h-433z" />
    <glyph glyph-name="comma" unicode="," horiz-adv-x="428" 
d="M233 -55l-143 -195l-18 -24l-47 -60l-39 -47l14 55l20 72l31 107q79 275 117 340q40 64 108 38q70 -21 61 -87.5t-104 -198.5z" />
    <glyph glyph-name="hyphen" unicode="-" horiz-adv-x="610" 
d="M74 514v178h463v-178h-463z" />
    <glyph glyph-name="period" unicode="." horiz-adv-x="456" 
d="M285 0q-35 -18 -74 -18q-82 0 -123 65q-26 47 -12 98t61 76q54 29 111.5 15t87.5 -62q29 -44 14 -96t-65 -78z" />
    <glyph glyph-name="slash" unicode="/" horiz-adv-x="737" 
d="M59 0l527 1475h92l-526 -1475h-93z" />
    <glyph glyph-name="zero" unicode="0" horiz-adv-x="1261" 
d="M276 104q-207 195 -219 596q-3 89 17 207q42 219 170 391q131 175 342 193q208 18 352 -123q142 -142 197 -358q61 -268 28.5 -480.5t-151.5 -361.5q-84 -110 -222.5 -158t-279.5 -23t-234 117zM283 715q0 -91 12 -180q27 -195 106 -332q60 -104 158 -133q104 -27 186 26
q112 69 177 271q26 73 32 170q27 328 -43 544q-68 223 -176 293q-81 53 -176 23q-94 -27 -151 -131q-122 -216 -125 -551z" />
    <glyph glyph-name="one" unicode="1" horiz-adv-x="1239" 
d="M713 0h-209v1370l-180 -33l-9 74l398 64v-1475z" />
    <glyph glyph-name="two" unicode="2" horiz-adv-x="1239" 
d="M772 565l-352 -481h618v-84h-891l469 641l17 21l29 40l34 48l29 43l33 51q117 189 102 332q-14 113 -72.5 165t-187.5 64q-250 21 -344 -238l-10 -30h-74l4 18l4 19q41 148 150 228.5t270 80.5q273 3 379 -158q109 -160 6 -410q-45 -108 -141 -251q-15 -19 -31 -46
l-8 -12z" />
    <glyph glyph-name="three" unicode="3" horiz-adv-x="1241" 
d="M653 901h-362l438 514h-522v60h784l-438 -523h211q39 0 84 -10q110 -24 137 -123q30 -101 -45 -213l-430 -606h-219l463 641q31 45 45 88q25 75 -15.5 123.5t-130.5 48.5z" />
    <glyph glyph-name="four" unicode="4" horiz-adv-x="1239" 
d="M926 492v-492h-211v492h-725l723 983h213v-902h129v-81h-129zM141 573h574v775z" />
    <glyph glyph-name="five" unicode="5" horiz-adv-x="1239" 
d="M918 606l-431 -606h-219l463 641q38 53 45 77t-2 75q-14 57 -47 82.5t-96 25.5h-357v574h664v-64h-453v-459h254q4 0 18.5 -1t18.5 -1q136 -20 178 -106t-24 -215q-1 -3 -6 -11.5t-6 -11.5z" />
    <glyph glyph-name="six" unicode="6" horiz-adv-x="1269" 
d="M104 483q3 117 41 224q20 52 48 104l368 664h211l-358 -668l12 10l14 12q123 91 353 27q164 -47 262 -174q119 -152 84 -334q-30 -184 -193 -285q-147 -97 -352 -94q-233 5 -362 140t-128 374zM373 657q-32 -77 -39 -116q-10 -48 -10 -107q3 -133 53 -233
q64 -132 203 -156q141 -22 241 78q119 113 119 303q0 192 -119 305q-106 100 -248 76t-200 -150z" />
    <glyph glyph-name="seven" unicode="7" horiz-adv-x="1239" 
d="M1128 1475l-706 -1475h-209l676 1411h-797v64h1036z" />
    <glyph glyph-name="eight" unicode="8" horiz-adv-x="1239" 
d="M410 829l16 7l18 6l-28 10q-116 47 -162 151t-8 234q71 245 370 248q112 0 185 -37q161 -75 188 -264q30 -242 -180 -330l-29 -12l21 -6l18 -7q59 -21 127 -77q180 -152 146 -396q-25 -187 -148 -291t-323 -104q-223 -2 -352.5 122.5t-129.5 340.5q0 201 146 326
q67 58 125 79zM412 1143q-3 -36 6 -76q15 -83 61 -135q52 -58 131 -58q78 0 127 58q67 79 64 219q-3 143 -70 219q-48 56 -118.5 56.5t-120.5 -56.5q-74 -86 -80 -227zM354 408q0 -38 11 -109q26 -131 93.5 -200.5t162.5 -69.5q117 3 188 102q76 101 70 285q-6 180 -103 303
q-65 80 -164 80q-94 0 -159 -80q-96 -119 -99 -311z" />
    <glyph glyph-name="nine" unicode="9" horiz-adv-x="1241" 
d="M1057 756l-21 -35l-20 -33l-23 -37l-12 -18l-412 -633h-231l455 659q-110 -68 -250 -65q-218 3 -342 154q-120 150 -86 370q24 147 141 252q112 95 274 115q90 9 166 -2q182 -24 289 -125q197 -184 123 -477q-14 -58 -51 -125zM381 1274q-25 -48 -37 -107
q-10 -65 -10 -106q3 -192 108 -303q91 -98 222 -74q129 23 188 154q25 63 33 106q40 257 -99 408q-87 97 -217 73q-126 -21 -188 -151z" />
    <glyph glyph-name="colon" unicode=":" horiz-adv-x="518" 
d="M315 0q-35 -18 -73 -18q-82 0 -123 65q-26 47 -12 98t61 76q54 29 111.5 15t87.5 -62q29 -44 13.5 -96t-65.5 -78zM315 844q-36 -19 -73 -19q-82 0 -123 66q-26 47 -12 98t61 76q54 29 111.5 15t87.5 -62q29 -44 13.5 -96t-65.5 -78z" />
    <glyph glyph-name="semicolon" unicode=";" horiz-adv-x="475" 
d="M319 844q-36 -19 -71 -19q-84 0 -125 66q-26 47 -12 98t61 76q54 29 111.5 15t87.5 -62q29 -44 13.5 -96t-65.5 -78zM276 -55l-143 -195l-18 -24l-47 -60l-39 -47l14 55l20 72l31 107q79 275 117 340q40 64 108 38q70 -21 61 -87.5t-104 -198.5z" />
    <glyph glyph-name="less" unicode="&#x3c;" horiz-adv-x="610" 
d="M537 981l-312 -440l312 -441l-121 -129l-342 480v180l342 479z" />
    <glyph glyph-name="equal" unicode="=" horiz-adv-x="1239" 
d="M102 504v170h1033v-170h-1033zM102 801v170h1033v-170h-1033z" />
    <glyph glyph-name="greater" unicode="&#x3e;" horiz-adv-x="610" 
d="M195 1110l342 -479v-180l-342 -480l-121 129l311 441l-311 440z" />
    <glyph glyph-name="question" unicode="?" horiz-adv-x="862" 
d="M309 1419q-73 -20 -120.5 -76.5t-55.5 -130.5h-74l2 13l5 16q31 130 142 197.5t269 48.5q136 -17 219 -92.5t103 -198.5q37 -224 -230 -383q-83 -50 -143 -70l-2 -18l-2 -10l-4 -21l-8 -57l-9 -47l-8 -60l-8 -47l-6 -41l-4 -39l-4 -41h-31q-7 69 -14 97l-4 16l-19 64
q-4 20 -4 24q-24 105 -18 170q6 66 34 103t105 82q5 5 31 20q104 68 141 131q33 56 14 154q-23 123 -103.5 175.5t-193.5 20.5zM428 0q-38 -18 -74 -18q-84 0 -125 65q-26 47 -11.5 98t61.5 76q56 29 112 15t86 -62q29 -45 14 -96t-63 -78z" />
    <glyph glyph-name="at" unicode="@" horiz-adv-x="1593" 
d="M930 471q-8 -32 -41 -74q-113 -131 -268 -61q-173 77 -158 364q2 28 8 72q31 194 137 318q109 121 226 118q120 -3 174 -108l10 -21l18 117l101 -2l-78 -440l-29 -179q-12 -74 4 -126q11 -37 44.5 -54t70.5 -4q46 14 117 94q79 98 106 275q46 306 -135 493
q-183 189 -469 146q-245 -38 -397 -248q-154 -213 -127 -496q6 -69 20 -114q39 -157 136.5 -271t222.5 -165t272.5 -38.5t282.5 95.5q43 23 100 74q67 57 111 116l41 -73q-46 -54 -52 -60q-236 -248 -544 -248q-317 -3 -529 234q-207 235 -186 583q15 236 145 412
q196 263 504 301q341 41 553 -188q213 -226 154 -574q-31 -185 -125.5 -303.5t-210.5 -136.5q-93 -15 -156 39q-62 53 -53 133zM582 596q3 -77 26 -127q27 -62 94 -74q69 -9 117 39q48 45 96 176q20 63 37 154l4 20l15 86q10 69 2 121q-12 73 -69.5 107t-119.5 8
q-56 -23 -92 -73t-71 -154q-20 -57 -27 -101q-15 -88 -12 -182z" />
    <glyph glyph-name="A" unicode="A" 
d="M1114 0l-199 438h-694l-194 -438h-72l684 1538l686 -1538h-211zM250 502h631l-314 712z" />
    <glyph glyph-name="B" unicode="B" horiz-adv-x="1325" 
d="M1114 152q-146 -152 -440 -152h-527v1475h551q268 0 402 -140q114 -126 96 -280q-18 -156 -149 -226q-37 -19 -66 -28q-49 -17 -102 -25q62 -12 98 -24q43 -17 76 -35q149 -85 170 -258q21 -171 -109 -307zM610 727h-256v-661h240q215 0 330 139q87 109 69 241
q-15 135 -129 211q-101 70 -254 70zM594 1409h-240v-618h256q200 0 301 131q85 111 64 231q-21 123 -131 190q-107 66 -250 66z" />
    <glyph glyph-name="C" unicode="C" horiz-adv-x="1482" 
d="M922 1489q120 -9 247 -64q115 -53 209 -141l-41 -51l-43 31q-113 78 -204 104q-327 102 -545 -74q-218 -173 -215 -553q3 -390 217 -565q219 -173 557 -72q93 25 192 99q21 14 35 28l51 -47q-197 -197 -577 -200q-312 -3 -512 206q-203 212 -203 545q0 371 225 576
q228 205 607 178z" />
    <glyph glyph-name="D" unicode="D" horiz-adv-x="1456" 
d="M1313 518q-56 -244 -221 -381q-162 -137 -385 -137h-560v1475h566q205 0 364 -123q161 -122 228 -344q70 -222 8 -490zM707 1409h-353v-1343h353q171 0 290 174q121 177 121 495q0 323 -121 500q-119 174 -290 174z" />
    <glyph glyph-name="E" unicode="E" horiz-adv-x="931" 
d="M354 733v-667h504v-66h-711v1475h711v-66h-504v-612h459v-64h-459z" />
    <glyph glyph-name="F" unicode="F" horiz-adv-x="872" 
d="M813 797v-64h-459v-733h-207v1475h711v-66h-504v-612h459z" />
    <glyph glyph-name="G" unicode="G" horiz-adv-x="1540" 
d="M1106 1436q121 -37 227 -111q25 -15 43 -33l-43 -39q-83 53 -190 93l-64 20q-324 89 -540 -88q-220 -181 -220 -545q0 -333 181 -514q182 -182 452 -147q138 15 213 75v486h-409v61h616v-518l-14 -10l-12 -10l-74 -47q-88 -52 -187 -82q-134 -39 -263 -40.5t-238 31
t-201.5 98t-157.5 156t-101 209t-36 252.5q0 264 139 459t365.5 257t513.5 -13z" />
    <glyph glyph-name="H" unicode="H" horiz-adv-x="1310" 
d="M956 0v748h-602v-748h-207v1475h207v-664h602v664h207v-1475h-207z" />
    <glyph glyph-name="I" unicode="I" horiz-adv-x="501" 
d="M147 0v1475h207v-1475h-207z" />
    <glyph glyph-name="J" unicode="J" horiz-adv-x="677" 
d="M233 4q-54 -4 -61 -4h-186v66h182q83 0 120.5 64.5t37.5 217.5v1127h204v-1127q0 -169 -69 -248t-228 -96z" />
    <glyph glyph-name="K" unicode="K" horiz-adv-x="1081" 
d="M868 0l-469 793l-45 -39v-754h-207v1475h207v-623l621 623h96l-545 -541l584 -934h-242z" />
    <glyph glyph-name="L" unicode="L" horiz-adv-x="880" 
d="M354 1475v-1409h541v-66h-748v1475h207z" />
    <glyph glyph-name="M" unicode="M" horiz-adv-x="1703" 
d="M1350 1260l-537 -1289l-600 1289v-1260h-66v1475h195l526 -1135l508 1135h180v-1475h-206v1260z" />
    <glyph glyph-name="N" unicode="N" horiz-adv-x="1339" 
d="M1192 1475v-1504l-981 1252v-1223h-64v1475h107l872 -1088v1088h66z" />
    <glyph glyph-name="O" unicode="O" horiz-adv-x="1746" 
d="M1602 733q0 -259 -136 -457q-135 -193 -354 -264q-349 -114 -629 31q-276 144 -364 463q-29 110 -29 219q2 138 41 260.5t106.5 216.5t162.5 162t206 102t240.5 32t261.5 -44q219 -71 356 -266q138 -196 138 -455zM309 723q0 -81 23 -193q53 -235 186 -361t318 -126
q218 0 370 186q156 188 156 508q0 321 -156 508q-153 187 -370 187q-221 0 -375 -189q-152 -190 -152 -520z" />
    <glyph glyph-name="P" unicode="P" horiz-adv-x="1071" 
d="M616 737h-262v-737h-207v1475h469q157 0 264.5 -68.5t145.5 -192.5q35 -108 0 -217q-38 -123 -145 -191.5t-265 -68.5zM580 1409h-226v-610h226q118 0 194 84.5t76 222.5q0 134 -76 218.5t-194 84.5z" />
    <glyph glyph-name="Q" unicode="Q" horiz-adv-x="1746" 
d="M1108 1454q-338 108 -616 -35q-279 -145 -367 -461q-62 -261 -3 -474t228 -355q172 -143 391 -158l2 -399h207l-2 401q278 27 467 240q187 211 187 518q0 261 -138 457q-134 195 -356 266zM741 410v-361q-204 56 -317 233t-113 455q0 342 189 549q78 91 189.5 126.5
t220.5 15t209 -97t155 -195.5q47 -95 65 -191q65 -336 -49 -575t-342 -316v357h-207z" />
    <glyph glyph-name="R" unicode="R" horiz-adv-x="1163" 
d="M571 1409h-217v-1409h-207v1475h478q124 0 227.5 -41.5t163.5 -114.5q101 -119 86 -270t-139 -238q-88 -62 -238 -98q-52 -7 -59 -8l432 -705h-244l-455 784h203q152 0 237 84t81 232q-5 136 -101.5 222.5t-247.5 86.5z" />
    <glyph glyph-name="S" unicode="S" horiz-adv-x="1036" 
d="M84 264l-4 15l-6 20l67 18l6 -16l5 -12l14 -29q111 -203 301 -209q149 -3 231 101q84 107 50 258q-20 93 -73.5 150t-168.5 106q-220 95 -301 165q-84 75 -111 197q-43 179 78 318q122 140 334 137q246 -3 360 -185q3 -4 8.5 -15.5t8.5 -14.5l-78 -31q-30 65 -92 115
q-79 61 -171 67.5t-167 -43.5q-102 -68 -117 -186q-15 -116 68 -184q56 -50 180 -93q196 -65 295 -155.5t135 -231.5q55 -217 -74 -376t-356 -162q-186 -3 -305 104q-9 7 -39 41q-56 72 -78 131z" />
    <glyph glyph-name="T" unicode="T" horiz-adv-x="708" 
d="M459 1409v-1409h-205v1409h-268v66h737v-66h-264z" />
    <glyph glyph-name="U" unicode="U" horiz-adv-x="1150" 
d="M1004 1475v-1100q0 -173 -117 -281t-307 -108q-193 3 -312 110q-121 112 -121 271v1108h207v-1108q0 -155 113 -240q114 -85 260 -45q90 28 147 96q66 84 66 195v1102h64z" />
    <glyph glyph-name="V" unicode="V" horiz-adv-x="890" 
d="M518 414l334 1061h68l-476 -1500l-473 1500h211z" />
    <glyph glyph-name="W" unicode="W" horiz-adv-x="1533" 
d="M1563 1475l-506 -1500l-289 899l-301 -899l-496 1500h211l369 -1074l186 568l-155 506h211l337 -1094l365 1094h68z" />
    <glyph glyph-name="X" unicode="X" horiz-adv-x="1253" 
d="M1253 0h-231l-434 637l-498 -637h-90l541 696l-512 779h211l422 -621l493 621h88l-534 -693z" />
    <glyph glyph-name="Y" unicode="Y" horiz-adv-x="1024" 
d="M612 741v-741h-206v748l-435 727h236l377 -658l391 658h78z" />
    <glyph glyph-name="Z" unicode="Z" horiz-adv-x="1216" 
d="M1157 1475l-833 -1409h833v-66h-1112l852 1409h-801v66h1061z" />
    <glyph glyph-name="backslash" unicode="\" horiz-adv-x="608" 
d="M512 0h-158l-258 1475h156z" />
    <glyph glyph-name="asciicircum" unicode="^" horiz-adv-x="706" 
d="M692 1167h-211l-127 219l-129 -219h-211l209 291h260z" />
    <glyph glyph-name="underscore" unicode="_" horiz-adv-x="1179" 
d="M0 0v47h1180v-47h-1180z" />
    <glyph glyph-name="grave" unicode="`" horiz-adv-x="546" 
d="M14 1460h273l135 -291h-160z" />
    <glyph glyph-name="a" unicode="a" horiz-adv-x="860" 
d="M690 0l-82 250h-465l-82 -250h-75l323 995q18 51 43 80q37 35 89 26.5t75 -52.5q14 -25 23 -54l335 -995h-184zM328 817l-164 -502h416l-156 504q-6 20 -27 58q-7 11 -20 11t-19 -11q-20 -25 -30 -60z" />
    <glyph glyph-name="b" unicode="b" horiz-adv-x="1277" 
d="M1155 373q-56 -173 -205.5 -273t-361.5 -100h-455v1622h193v-561h262q213 0 362 -99t205 -274q52 -163 0 -315zM608 995h-282v-929h272q131 0 227.5 86.5t128.5 238.5q56 255 -55 430q-110 174 -291 174z" />
    <glyph glyph-name="c" unicode="c" horiz-adv-x="1083" 
d="M74 514q-1 213 101.5 355t287.5 186q185 39 326 0.5t227 -146.5l-31 -39q-84 104 -231 134q-206 43 -346 -91q-137 -134 -134 -405q1 -258 129 -380t355 -87q115 18 209 94q4 12 18 17l39 -33q-104 -104 -285 -139q-95 -16 -190 -5q-219 29 -344.5 172.5t-130.5 366.5z
" />
    <glyph glyph-name="d" unicode="d" horiz-adv-x="1277" 
d="M96 373q-53 157 0 315q56 174 206 273.5t364 99.5h262v561h190v-1622h-452q-214 0 -364 99.5t-206 273.5zM653 66h275v929h-285q-181 0 -291 -174q-111 -175 -55 -430q32 -152 128.5 -238.5t227.5 -86.5z" />
    <glyph glyph-name="e" unicode="e" horiz-adv-x="854" 
d="M442 66h353v-66h-504q-158 0 -158 162v737q0 25 2 31q11 62 52.5 96.5t107.5 34.5h500v-66h-355q-4 0 -13 -1l-9 -1q-92 -12 -92 -96v-309h401v-64h-401v-354q0 -51 20.5 -72t77.5 -32h18z" />
    <glyph glyph-name="f" unicode="f" horiz-adv-x="497" 
d="M543 1061v-66h-217v-995h-193v1438q0 61 72 121q61 52 190 61q10 2 51 2h82v-61l-92 -7q-60 -4 -85 -28t-25 -74v-391h217z" />
    <glyph glyph-name="g" unicode="g" horiz-adv-x="1251" 
d="M80 608q35 216 180 340q147 126 369 129q287 3 405 -168l-33 -30q-117 141 -339 141q-164 -2 -266 -108t-122 -306q-24 -254 57.5 -397t254.5 -168q194 -27 313 61l14 11l13 12v377h192v-930h-192v469q-73 -51 -219 -66q-251 -30 -413 86t-210 353q-19 102 -4 194z" />
    <glyph glyph-name="h" unicode="h" horiz-adv-x="1216" 
d="M891 0v573h-565v-573h-193v1622h193v-985h565v424h192v-1061h-192z" />
    <glyph glyph-name="i" unicode="i" horiz-adv-x="493" 
d="M135 0v1061h193v-1061h-193zM295 1186q-27 -15 -64 -15q-72 0 -106 58q-24 38 -11 83.5t54 65.5q47 25 97 12.5t73 -53.5q24 -42 11.5 -84.5t-54.5 -66.5z" />
    <glyph glyph-name="j" unicode="j" horiz-adv-x="479" 
d="M336 1061v-1131q0 -188 -84.5 -273t-265.5 -85h-125v66h123q147 0 159 262v30v1131h193zM369 1282q0 -64 -58 -94q-47 -25 -98 -12.5t-74 53.5t-10.5 83.5t53.5 65.5q39 17 64 17q53 0 88 -32.5t35 -80.5z" />
    <glyph glyph-name="k" unicode="k" horiz-adv-x="1026" 
d="M838 0l-476 610l-36 -35v-569l-193 -6v1622h193v-965l450 404h84l-366 -332l561 -729h-217z" />
    <glyph glyph-name="l" unicode="l" horiz-adv-x="550" 
d="M565 0h-268q-5 0 -37 4q-127 27 -127 178v1440h193v-1438q0 -101 106 -116q6 -2 25 -2h108v-66z" />
    <glyph glyph-name="m" unicode="m" horiz-adv-x="1476" 
d="M199 745v-745h-66v958q0 68 42.5 99t119.5 18q73 -15 104 -84l328 -715l346 715q12 24 23 35q30 40 73 55q66 23 120 -15.5t54 -107.5v-958h-192v754v63q0 15 -8 23q-33 38 -86 -52q-8 -13 -8 -18l-385 -801l-375 785l-25 57q-3 14 -16 23q-16 13 -35 -3q-14 -14 -14 -86
z" />
    <glyph glyph-name="n" unicode="n" horiz-adv-x="1040" 
d="M199 778v-778h-66v928q0 52 29 102q26 43 72.5 45.5t87.5 -35.5q23 -22 57 -69l414 -582q15 -20 28 -33q2 -2 10 -2q13 3 13 41v666h63v-983q0 -28 -14 -60q-10 -19 -30.5 -18.5t-37.5 20.5l-8 9l-22 32l-519 736l-38 43q-6 6 -17 2.5t-12 -13.5q-10 -23 -10 -51z" />
    <glyph glyph-name="o" unicode="o" horiz-adv-x="1347" 
d="M1204 365q-54 -184 -201.5 -290t-353.5 -106q-204 0 -350.5 105.5t-202.5 290.5q-24 80 -24 163q0 250 161 404q165 160 416 160q298 0 469 -222q169 -217 86 -505zM268 528q0 -56 17 -143q16 -76 51 -147q30 -67 82.5 -116.5t115.5 -72t128.5 -24t127 26.5t105.5 81
q84 90 121 252q64 276 -58 469q-120 190 -309 190q-160 0 -270 -137q-111 -138 -111 -379z" />
    <glyph glyph-name="p" unicode="p" horiz-adv-x="1277" 
d="M588 0h-262v-428h-193v1489h455q213 0 362 -99t205 -274q52 -163 0 -315q-56 -173 -205.5 -273t-361.5 -100zM598 995h-272v-929h282q180 0 291 172q111 175 55 430q-32 152 -129 239.5t-227 87.5z" />
    <glyph glyph-name="q" unicode="q" horiz-adv-x="1277" 
d="M96 373q-52 152 0 315q56 174 206 273.5t364 99.5h452v-1489h-190v428h-262q-214 0 -364 99.5t-206 273.5zM643 66h285v929h-275q-130 0 -227 -87.5t-129 -239.5q-56 -255 55 -430q111 -172 291 -172z" />
    <glyph glyph-name="r" unicode="r" horiz-adv-x="1019" 
d="M530 995h-204v-995h-193v1061h469q124 0 212 -54.5t120 -148.5q14 -43 14 -84q5 -111 -52.5 -184.5t-172.5 -102.5l-94 -18l346 -469h-225l-379 537h155h39q98 0 159 64t60 167q-2 99 -73 163t-181 64z" />
    <glyph glyph-name="s" unicode="s" horiz-adv-x="899" 
d="M287 500q-115 37 -165 102t-48 176q2 129 81 206t214 77h389v-70h-346q-67 0 -113.5 -35.5t-60.5 -95.5q-19 -87 24 -137t160 -76l53 -12q169 -29 251.5 -97t96.5 -186q20 -165 -69.5 -258.5t-272.5 -93.5h-381v78h389q94 0 143.5 63.5t29.5 161.5l-15 41q-25 51 -71 77
t-148 46l-68 14l-36 8q-23 6 -37 11z" />
    <glyph glyph-name="t" unicode="t" horiz-adv-x="706" 
d="M453 995v-995h-193v995h-274v66h735v-66h-268z" />
    <glyph glyph-name="u" unicode="u" horiz-adv-x="1026" 
d="M893 1061v-674q0 -206 -121 -315t-317 -82q-149 19 -235.5 122.5t-86.5 266.5v682h193v-682q0 -252 188 -299q133 -35 223 49t90 256v676h66z" />
    <glyph glyph-name="v" unicode="v" horiz-adv-x="915" 
d="M428 16l-22 52l-435 993h217l310 -737q7 -18 26 -45q10 -14 21 0q16 25 26 47l297 735h76l-403 -993q-12 -31 -25 -52q-14 -25 -39.5 -25t-48.5 25z" />
    <glyph glyph-name="w" unicode="w" horiz-adv-x="1423" 
d="M428 16l-22 52l-435 993h217l310 -737q6 -21 22 -37q16 -23 29 0l22 37l109 282l-201 455h217l310 -737q9 -18 24 -39q9 -16 25 0q16 22 24 41l310 735h63l-403 -993q-25 -62 -45 -70q-43 -22 -66 16q-18 35 -25 52l-190 442l-182 -442q-14 -37 -25 -52
q-13 -23 -40.5 -23t-47.5 25z" />
    <glyph glyph-name="x" unicode="x" horiz-adv-x="925" 
d="M426 430l-336 -430h-74l371 477l-387 584h195l309 -447l346 447h74l-389 -502l391 -559h-209z" />
    <glyph glyph-name="y" unicode="y" horiz-adv-x="1038" 
d="M1067 1061l-719 -1489h-59l219 463l-537 1026h205l430 -821l398 821h63z" />
    <glyph glyph-name="z" unicode="z" horiz-adv-x="876" 
d="M516 989q-30 6 -55 6h-402v66h584h55q50 -5 72 -41t2 -80q-9 -24 -43 -76l-422 -702q-10 -21 -14 -39q-5 -20 12 -38t43 -19h35h434v-66h-670q-41 0 -58 22.5t-3 55.5q1 2 4 10t6 16.5t4 12.5l21 45l426 715q24 44 15.5 72.5t-46.5 39.5z" />
    <glyph glyph-name="braceleft" unicode="{" horiz-adv-x="647" 
d="M96 737q56 5 92.5 45.5t36.5 102.5v676q0 145 166 145h160v-92h-25q-72 0 -95 -23.5t-23 -95.5v-594q0 -63 -41.5 -110.5t-104.5 -53.5q63 -6 104.5 -53.5t41.5 -110.5v-593q0 -72 23 -95.5t95 -23.5h25v-92h-160q-166 0 -166 145v676q0 62 -36.5 102t-92.5 45z" />
    <glyph glyph-name="bar" unicode="|" horiz-adv-x="348" 
d="M252 1475v-1475h-156v1475h156z" />
    <glyph glyph-name="braceright" unicode="}" horiz-adv-x="647" 
d="M256 -231h-160v92h25q72 0 95.5 23.5t23.5 95.5v593q0 64 41.5 111t103.5 53q-62 6 -103.5 53t-41.5 111v594q0 72 -23.5 95.5t-95.5 23.5h-25v92h160q166 0 166 -145v-676q0 -62 36.5 -102.5t92.5 -45.5q-56 -5 -92.5 -45t-36.5 -102v-676q0 -145 -166 -145z" />
    <glyph glyph-name="asciitilde" unicode="~" horiz-adv-x="665" 
d="M131 1188q-2 -2 -2 -12h-115q0 6 4 38q47 232 252 168l27 -8l43 -14l61 -21q63 -20 91 -12t40 47q5 5 5 15h114q-6 -46 -6 -48q-47 -215 -252 -157l-43 12l-31 10l-63 21q-101 34 -125 -39z" />
    <glyph glyph-name="nbspace" unicode="&#xa0;" horiz-adv-x="1024" 
 />
    <glyph glyph-name="exclamdown" unicode="&#xa1;" horiz-adv-x="520" 
d="M367 1303q-41 -66 -125 -66q-82 0 -123 66q-26 47 -12 97.5t61 76.5q76 41 147 0q49 -26 64 -78t-12 -96zM184 705l13 141l6 78l6 90l8 112h35l14 -200l21 -219l22 -224l10 -112l9 -101q12 -140 6 -186q-3 -45 -31 -76q-25 -26 -62.5 -26t-62.5 26q-28 28 -31 72
q-3 54 5 190l8 129l6 82l6 84z" />
    <glyph glyph-name="cent" unicode="&#xa2;" horiz-adv-x="1083" 
d="M74 514q-2 228 117.5 370t347.5 185q45 7 51 8v160h74v-160q46 0 96 -12q166 -38 256 -156l-31 -30q-79 94 -233 135q-49 10 -88 14v-989q171 -12 303 96q4 12 18 17l39 -33q-99 -102 -270 -137q-38 -8 -90 -11v-188h-74v192q-8 0 -27 2t-26 3q-213 32 -335.5 175
t-127.5 359zM590 47v973q-94 -15 -207 -125q-83 -83 -104 -291q-9 -83 0 -170q15 -147 59 -221t149 -131q44 -25 103 -35z" />
    <glyph glyph-name="sterling" unicode="&#xa3;" 
d="M506 633l-129 -570h729v-63h-1061l12 63h117l125 568h-106l14 74h110l113 509q25 115 130 189.5t267 81.5q188 7 279.5 -59t110.5 -222q0 -4 2 -19.5t2 -19.5l-2 -18v-21h-101q2 8 2 33q-5 147 -87.5 217t-217.5 39q-66 -17 -112.5 -70.5t-65.5 -134.5l-115 -505l330 -3
l-16 -75z" />
    <glyph glyph-name="currency" unicode="&#xa4;" horiz-adv-x="937" 
d="M96 436l127 125q-57 80 -58 178.5t56 178.5l-123 118q25 38 64 72l127 -127q80 60 179 61t179 -59l125 127q27 -21 55 -53q0 -1 7 -9.5t8 -11.5l-127 -118q57 -80 57 -180t-59 -179l127 -127l-15 -16l-16 -15q-27 -26 -39 -34l-123 127q-79 -60 -178.5 -60t-177.5 60
l-129 -125q-38 26 -66 67zM324 881q-60 -60 -60 -143.5t60 -143.5q61 -60 144.5 -60t143.5 60t60 143.5t-60 143.5t-143.5 60t-144.5 -60z" />
    <glyph glyph-name="yen" unicode="&#xa5;" horiz-adv-x="1038" 
d="M37 492v73l366 2l3 181l-435 727h236l377 -658l391 658h78l-441 -734l-4 -174l371 2v-73l-371 -2v-74l373 2v-74l-371 -2l2 -346h-206l-3 346l-368 -2v74l368 2v74z" />
    <glyph glyph-name="dieresis" unicode="&#xa8;" horiz-adv-x="591" 
d="M211 1225q-35 -54 -98 -54q-64 0 -99 54q-20 37 -9 77t48 60q59 34 117 0q39 -20 51.5 -61t-10.5 -76zM551 1225q-31 -54 -98 -54q-66 0 -97 54q-20 37 -9 77t48 60q59 34 117 0q38 -20 50 -61t-11 -76z" />
    <glyph glyph-name="copyright" unicode="&#xa9;" horiz-adv-x="1765" 
d="M342 199q-223 223 -223 540q0 318 223 541t541 223q317 0 540 -223q224 -224 224 -541q0 -316 -224 -540t-540 -224q-317 0 -541 224zM221 739q0 -277 197 -477q192 -192 465 -192q275 0 467 192q194 200 194 475q0 277 -194 477q-195 195 -467 195q-270 0 -465 -195
q-197 -200 -197 -475zM1239 1114l-61 -90q-85 73 -181 90q-185 38 -323 -82q-138 -117 -135 -309q0 -39 6 -76q19 -94 80.5 -166.5t142 -107.5t177 -30t179.5 58q31 20 50 37l63 -88q-132 -111 -317 -117q-88 -2 -168 22.5t-142.5 70.5t-108 111t-68 140.5t-19.5 163
t35 174.5q61 168 215 254q155 90 337 56q131 -21 238 -111z" />
    <glyph glyph-name="ordfeminine" unicode="&#xaa;" horiz-adv-x="913" 
d="M817 571h-700v125h700v-125zM664 1366l10 -16l6 -15v140h135l2 -678h-137v149l-6 -16q-35 -95 -146 -133q-109 -37 -229 10q-162 64 -197 254q-21 93 6 183t83.5 150t136 88.5t157.5 8.5q118 -27 179 -125zM236 1139q0 -26 6 -47q18 -100 94 -152q61 -39 127.5 -39
t122.5 41q74 53 92 148q9 49 0 98q-24 123 -127 170q-91 42 -178 2q-109 -50 -133 -178q-4 -36 -4 -43z" />
    <glyph glyph-name="guillemotleft" unicode="&#xab;" horiz-adv-x="901" 
d="M537 981l-312 -440l312 -441l-121 -129l-342 480v180l342 479zM844 981l-312 -440l312 -441l-121 -129l-342 480v180l342 479z" />
    <glyph glyph-name="logicalnot" unicode="&#xac;" horiz-adv-x="1187" 
d="M963 442v295h-867v156h996v-451h-129z" />
    <glyph glyph-name="sfthyphen" unicode="&#xad;" horiz-adv-x="610" 
d="M74 514v178h463v-178h-463z" />
    <glyph glyph-name="registered" unicode="&#xae;" horiz-adv-x="1765" 
d="M342 199q-223 223 -223 540q0 318 223 541t541 223q317 0 540 -223q224 -224 224 -541q0 -316 -224 -540t-540 -224q-317 0 -541 224zM221 739q0 -277 197 -477q192 -192 465 -192q275 0 467 192q194 200 194 475q0 277 -194 477q-195 195 -467 195q-270 0 -465 -195
q-197 -200 -197 -475zM766 741v-473h-123v961h225q145 0 215 -58q68 -56 86 -147q23 -126 -36 -211t-177 -102q-4 0 -16 -1t-16 -1l301 -441h-146zM858 1126h-92v-344h80q202 0 205 170q2 82 -49 128t-144 46z" />
    <glyph glyph-name="overscore" unicode="&#xaf;" horiz-adv-x="618" 
d="M14 1190v162h590v-162h-590z" />
    <glyph glyph-name="degree" unicode="&#xb0;" horiz-adv-x="370" 
d="M305 1217q-49 -51 -120 -51t-122 51q-49 52 -49 120q-3 52 29 95t78 62.5t98 12t86 -48.5q51 -51 51 -120.5t-51 -120.5zM123 1403q-27 -27 -27 -64q-3 -34 25 -65q30 -25 64 -26t61.5 24.5t27.5 64.5q0 59 -55 82t-96 -16z" />
    <glyph glyph-name="plusminus" unicode="&#xb1;" horiz-adv-x="1124" 
d="M1036 39h-946v139h946v-139zM90 678h404v250h139v-250h403v-139h-403v-250h-139v250h-404v139z" />
    <glyph glyph-name="acute" unicode="&#xb4;" horiz-adv-x="487" 
d="M125 1165l133 293h274l-247 -293h-160z" />
    <glyph glyph-name="mu" unicode="&#xb5;" horiz-adv-x="1179" 
d="M152 418v502h188v-607q0 -144 28 -193.5t103 -49.5q119 -3 195 163q77 171 77 420v267h189v-672q0 -92 18 -135q18 -40 60 -43q41 0 65 43q23 44 23 125v28h43q0 -12 2 -18v-27q0 -114 -49 -178q-46 -61 -136 -61q-95 -3 -155 88q-50 83 -53 264q-46 -181 -125 -266
q-77 -83 -199 -86q-91 0 -150 53q-57 51 -81 158q0 -1 -1 -24t-1 -34q-3 -124 65 -289q66 -163 66 -188q0 -41 -22.5 -63.5t-63.5 -22.5q-47 -3 -68 35q-17 31 -20 108l1 18q1 18 2 46.5t1 54.5q4 176 4 182q0 148 -2 207q-1 53 -2 100t-1.5 69.5t-0.5 25.5z" />
    <glyph glyph-name="paragraph" unicode="&#xb6;" horiz-adv-x="1220" 
d="M492 1475h632v-107h-632q-123 0 -205 -88q-85 -88 -82 -209q3 -122 86 -205q84 -84 201 -84h141v496h112v-1278h-112v676h-141q-164 0 -281 117q-115 118 -115 282q0 165 115 283q117 117 281 117zM993 1278v-1278h-112v1278h112z" />
    <glyph glyph-name="middot" unicode="&#xb7;" horiz-adv-x="518" 
d="M315 494q-36 -19 -73 -19q-85 0 -123 68q-27 44 -12.5 95.5t61.5 76.5q54 29 111.5 15t87.5 -62q27 -44 12 -96t-64 -78z" />
    <glyph glyph-name="cedilla" unicode="&#xb8;" horiz-adv-x="225" 
d="M119 -285q0 13 -2 17h-103v168h197v-156q0 -158 -166 -182q-3 0 -13 -1l-9 -1v82h14q76 9 82 73z" />
    <glyph glyph-name="ordmasculine" unicode="&#xba;" horiz-adv-x="913" 
d="M807 696v-125h-698v125h698zM96 1141q0 29 8 73q34 172 183 252q152 80 313 11q117 -46 176 -162q62 -115 35 -248q-23 -109 -99.5 -187t-181.5 -98q-74 -15 -145 0q-108 20 -183.5 97.5t-99.5 187.5q-6 38 -6 74zM233 1141q0 -28 3 -43q21 -124 129 -174q103 -47 198 6
q97 54 115 166q12 74 -12.5 138.5t-79.5 102.5q-107 76 -221 23q-108 -50 -129 -174q-3 -15 -3 -45z" />
    <glyph glyph-name="guillemotright" unicode="&#xbb;" horiz-adv-x="901" 
d="M356 100l312 441l-312 440l121 129l342 -479v-180l-342 -480zM49 100l311 441l-311 440l121 129l342 -479v-180l-342 -480z" />
    <glyph glyph-name="questiondown" unicode="&#xbf;" horiz-adv-x="862" 
d="M63 276q-19 116 35.5 207.5t194.5 175.5q71 45 143 70l2 19l2 12l4 20l9 58l8 45l10 59l6 47l6 41l4 39l5 41h30q10 -69 15 -96l4 -15l18 -65q4 -20 4 -23q30 -170 10 -229q-22 -63 -131 -127q-23 -13 -30 -20q-109 -72 -142 -131.5t-14 -151.5q23 -123 103.5 -176.5
t193.5 -22.5q73 20 121.5 77.5t54.5 129.5h74l-2 -10l-4 -19q-31 -130 -142.5 -197.5t-269.5 -47.5q-136 17 -219 92t-103 198zM633 1298q-41 -65 -125 -65q-82 0 -123 65q-27 47 -12.5 98t63.5 77q71 41 146 0q50 -26 65 -78.5t-14 -96.5z" />
    <glyph glyph-name="Agrave" unicode="&#xc0;" 
d="M1114 0l-199 438h-694l-194 -438h-72l684 1538l686 -1538h-211zM328 1858h272l135 -291h-160zM250 502h631l-314 712z" />
    <glyph glyph-name="Aacute" unicode="&#xc1;" 
d="M1114 0l-199 438h-694l-194 -438h-72l684 1538l686 -1538h-211zM559 1563l133 292h275l-248 -292h-160zM250 502h631l-314 712z" />
    <glyph glyph-name="Acircumflex" unicode="&#xc2;" 
d="M1114 0l-199 438h-694l-194 -438h-72l684 1538l686 -1538h-211zM985 1565h-211l-127 219l-129 -219h-211l209 290h260zM250 502h631l-314 712z" />
    <glyph glyph-name="Atilde" unicode="&#xc3;" 
d="M1114 0l-199 438h-694l-194 -438h-72l684 1538l686 -1538h-211zM461 1585q-2 -2 -2 -12h-115q0 7 4 39q47 232 252 168l27 -8l43 -15l61 -20q63 -20 91 -12t40 47q4 4 4 14h115q-6 -46 -6 -47q-47 -216 -252 -158l-43 12l-31 11l-63 20q-101 34 -125 -39zM250 502h631
l-314 712z" />
    <glyph glyph-name="Adieresis" unicode="&#xc4;" 
d="M1114 0l-199 438h-694l-194 -438h-72l684 1538l686 -1538h-211zM575 1616q-29 -51 -98 -51t-98 51q-20 38 -9 78.5t48 60.5q56 30 117 0q39 -24 51 -63t-11 -76zM915 1616q-29 -51 -98 -51q-70 0 -96 51q-23 38 -11.5 78.5t50.5 60.5q58 27 117 0q38 -20 49.5 -61
t-11.5 -78zM250 502h631l-314 712z" />
    <glyph glyph-name="Aring" unicode="&#xc5;" 
d="M1114 0l-199 438h-694l-194 -438h-72l684 1538l686 -1538h-211zM768 1653q-51 -51 -121 -51.5t-121 49.5q-52 52 -49 123q0 71 49 120q51 50 121 50.5t121 -50.5t50.5 -121t-50.5 -120zM250 502h631l-314 712zM709 1837q-25 26 -62 26t-63 -26t-26 -63.5t26 -63.5
q36 -41 85.5 -23.5t62.5 62.5t-23 88z" />
    <glyph glyph-name="AE" unicode="&#xc6;" horiz-adv-x="1513" 
d="M729 0v733h-317l-367 -733h-74l727 1475h742v-64h-498v-614h498v-64h-496v-670h496v-63h-711zM442 797h287v573z" />
    <glyph glyph-name="Ccedilla" unicode="&#xc7;" horiz-adv-x="1482" 
d="M922 1489q120 -9 247 -64q115 -53 209 -141l-41 -51l-43 31q-113 78 -204 104q-327 102 -545 -74q-218 -173 -215 -553q3 -390 217 -565q219 -173 557 -72q93 25 192 99q21 14 35 28l51 -47q-197 -197 -577 -200q-312 -3 -512 206q-203 212 -203 545q0 371 225 576
q228 205 607 178zM844 -285q0 13 -2 17h-103v168h197v-156q0 -158 -166 -182q-4 0 -13 -1l-9 -1v82h14q76 9 82 73z" />
    <glyph glyph-name="Egrave" unicode="&#xc8;" horiz-adv-x="931" 
d="M354 733v-667h504v-66h-711v1475h711v-66h-504v-612h459v-64h-459zM197 1858h272l135 -291h-160z" />
    <glyph glyph-name="Eacute" unicode="&#xc9;" horiz-adv-x="931" 
d="M354 733v-667h504v-66h-711v1475h711v-66h-504v-612h459v-64h-459zM428 1563l133 292h275l-248 -292h-160z" />
    <glyph glyph-name="Ecircumflex" unicode="&#xca;" horiz-adv-x="931" 
d="M354 733v-667h504v-66h-711v1475h711v-66h-504v-612h459v-64h-459zM840 1565h-211l-127 219l-129 -219h-211l209 290h260z" />
    <glyph glyph-name="Edieresis" unicode="&#xcb;" horiz-adv-x="931" 
d="M354 733v-667h504v-66h-711v1475h711v-66h-504v-612h459v-64h-459zM430 1622q-35 -53 -98 -53q-64 0 -99 53q-20 37 -9 77t48 60q58 35 117 0q39 -20 51.5 -61t-10.5 -76zM770 1622q-30 -53 -98 -53q-67 0 -97 53q-20 37 -9 77t48 60q58 35 117 0q38 -20 50 -61t-11 -76z
" />
    <glyph glyph-name="Igrave" unicode="&#xcc;" horiz-adv-x="501" 
d="M147 0v1475h207v-1475h-207zM-70 1858h273l135 -291h-160z" />
    <glyph glyph-name="Iacute" unicode="&#xcd;" horiz-adv-x="501" 
d="M147 0v1475h207v-1475h-207zM176 1563l133 292h275l-248 -292h-160z" />
    <glyph glyph-name="Icircumflex" unicode="&#xce;" horiz-adv-x="501" 
d="M147 0v1475h207v-1475h-207zM592 1565h-211l-127 219l-129 -219h-211l209 290h260z" />
    <glyph glyph-name="Idieresis" unicode="&#xcf;" horiz-adv-x="501" 
d="M150 0v1475h206v-1475h-206zM178 1622q-35 -53 -98 -53t-98 53q-20 37 -9.5 77t47.5 60q58 35 117 0q39 -20 51.5 -61t-10.5 -76zM518 1622q-30 -53 -98 -53q-66 0 -96 53q-20 37 -9.5 77t47.5 60q58 35 117 0q38 -20 50 -61t-11 -76z" />
    <glyph glyph-name="Ntilde" unicode="&#xd1;" horiz-adv-x="1339" 
d="M1192 1475v-1504l-981 1252v-1223h-64v1475h107l872 -1088v1088h66zM514 1585q-2 -2 -2 -12h-115q0 7 4 39q47 232 252 168l27 -8l43 -15l61 -20q63 -20 91 -12t40 47q5 5 5 14h114q-6 -46 -6 -47q-47 -216 -252 -158l-43 12l-31 11l-63 20q-101 34 -125 -39z" />
    <glyph glyph-name="Ograve" unicode="&#xd2;" horiz-adv-x="1746" 
d="M1602 733q0 -259 -136 -457q-135 -193 -354 -264q-349 -114 -629 31q-276 144 -364 463q-29 110 -29 219q2 138 41 260.5t106.5 216.5t162.5 162t206 102t240.5 32t261.5 -44q219 -71 356 -266q138 -196 138 -455zM537 1858h272l135 -291h-160zM309 723q0 -81 23 -193
q53 -235 186 -361t318 -126q218 0 370 186q156 188 156 508q0 321 -156 508q-153 187 -370 187q-221 0 -375 -189q-152 -190 -152 -520z" />
    <glyph glyph-name="Oacute" unicode="&#xd3;" horiz-adv-x="1746" 
d="M1602 733q0 -259 -136 -457q-135 -193 -354 -264q-349 -114 -629 31q-276 144 -364 463q-29 110 -29 219q2 138 41 260.5t106.5 216.5t162.5 162t206 102t240.5 32t261.5 -44q219 -71 356 -266q138 -196 138 -455zM772 1563l133 292h275l-248 -292h-160zM309 723
q0 -81 23 -193q53 -235 186 -361t318 -126q218 0 370 186q156 188 156 508q0 321 -156 508q-153 187 -370 187q-221 0 -375 -189q-152 -190 -152 -520z" />
    <glyph glyph-name="Ocircumflex" unicode="&#xd4;" horiz-adv-x="1746" 
d="M1602 733q0 -259 -136 -457q-135 -193 -354 -264q-349 -114 -629 31q-276 144 -364 463q-29 110 -29 219q2 138 41 260.5t106.5 216.5t162.5 162t206 102t240.5 32t261.5 -44q219 -71 356 -266q138 -196 138 -455zM1178 1565h-211l-127 219l-129 -219h-211l209 290h260z
M309 723q0 -81 23 -193q53 -235 186 -361t318 -126q218 0 370 186q156 188 156 508q0 321 -156 508q-153 187 -370 187q-221 0 -375 -189q-152 -190 -152 -520z" />
    <glyph glyph-name="Otilde" unicode="&#xd5;" horiz-adv-x="1746" 
d="M1602 733q0 -259 -136 -457q-135 -193 -354 -264q-349 -114 -629 31q-276 144 -364 463q-29 110 -29 219q2 138 41 260.5t106.5 216.5t162.5 162t206 102t240.5 32t261.5 -44q219 -71 356 -266q138 -196 138 -455zM680 1585q-2 -2 -2 -12h-115q0 7 4 39q47 232 252 168
l27 -8l43 -15l61 -20q63 -20 91 -12t40 47q4 4 4 14h115q-6 -46 -6 -47q-47 -216 -252 -158l-43 12l-31 11l-63 20q-101 34 -125 -39zM309 723q0 -81 23 -193q53 -235 186 -361t318 -126q218 0 370 186q156 188 156 508q0 321 -156 508q-153 187 -370 187q-221 0 -375 -189
q-152 -190 -152 -520z" />
    <glyph glyph-name="Odieresis" unicode="&#xd6;" horiz-adv-x="1746" 
d="M1602 733q0 -259 -136 -457q-135 -193 -354 -264q-349 -114 -629 31q-276 144 -364 463q-29 110 -29 219q2 138 41 260.5t106.5 216.5t162.5 162t206 102t240.5 32t261.5 -44q219 -71 356 -266q138 -196 138 -455zM776 1618q-30 -53 -98 -53t-98 53q-21 37 -9 77t50 60
q58 27 116 0q38 -20 50 -61t-11 -76zM1118 1618q-35 -53 -98 -53q-68 0 -98 53q-20 37 -9 77t48 60q58 30 116 0q38 -23 49.5 -62.5t-8.5 -74.5zM309 723q0 -81 23 -193q53 -235 186 -361t318 -126q218 0 370 186q156 188 156 508q0 321 -156 508q-153 187 -370 187
q-221 0 -375 -189q-152 -190 -152 -520z" />
    <glyph glyph-name="multiply" unicode="&#xd7;" horiz-adv-x="1241" 
d="M625 618l-306 -307l-118 119l305 307l-305 305l121 121l305 -307l305 307l119 -119l-306 -307l306 -305l-119 -121z" />
    <glyph glyph-name="Oslash" unicode="&#xd8;" horiz-adv-x="1689" 
d="M289 186l-258 -225l-64 70l269 233q-153 205 -150 459q1 138 40 260.5t106.5 216.5t162 162.5t204 102.5t237 32.5t256.5 -43.5q177 -56 307 -180l260 227l63 -61l-270 -234q40 -56 68 -119q94 -233 73 -450q-21 -213 -155 -389q-131 -171 -328 -236q-257 -74 -475 -22
q-221 50 -346 196zM1319 1008l-19 63l-878 -764q70 -169 240 -237q172 -64 354 12q157 69 247.5 242t90.5 419q0 137 -35 265zM379 383l883 772q-17 42 -37 68q-126 193 -348 211q-221 21 -377 -148q-193 -211 -193 -557q0 -173 72 -346z" />
    <glyph glyph-name="Ugrave" unicode="&#xd9;" horiz-adv-x="1150" 
d="M1004 1475v-1100q0 -173 -117 -281t-307 -108q-193 3 -312 110q-121 112 -121 271v1108h207v-1108q0 -155 113 -240q114 -85 260 -45q90 28 147 96q66 84 66 195v1102h64zM303 1858h272l136 -291h-160z" />
    <glyph glyph-name="Uacute" unicode="&#xda;" horiz-adv-x="1150" 
d="M1004 1475v-1100q0 -173 -117 -281t-307 -108q-193 3 -312 110q-121 112 -121 271v1108h207v-1108q0 -155 113 -240q114 -85 260 -45q90 28 147 96q66 84 66 195v1102h64zM551 1563l133 292h274l-247 -292h-160z" />
    <glyph glyph-name="Ucircumflex" unicode="&#xdb;" horiz-adv-x="1150" 
d="M1004 1475v-1100q0 -173 -117 -281t-307 -108q-193 3 -312 110q-121 112 -121 271v1108h207v-1108q0 -155 113 -240q114 -85 260 -45q90 28 147 96q66 84 66 195v1102h64zM956 1565h-211l-127 219l-129 -219h-210l208 290h261z" />
    <glyph glyph-name="Udieresis" unicode="&#xdc;" horiz-adv-x="1150" 
d="M1004 1475v-1100q0 -173 -117 -281t-307 -108q-193 3 -312 110q-121 112 -121 271v1108h207v-1108q0 -155 113 -240q114 -85 260 -45q90 28 147 96q66 84 66 195v1102h64zM555 1722q20 -37 9 -77t-48 -60q-43 -23 -89.5 -11.5t-66.5 48.5q-23 37 -11.5 77t50.5 60
q27 15 58 15q68 0 98 -52zM858 1585q-29 -16 -59 -16q-64 0 -99 53q-20 37 -9 77t48 60q27 15 60 15q68 0 98 -52q20 -37 9 -77.5t-48 -59.5z" />
    <glyph glyph-name="germandbls" unicode="&#xdf;" horiz-adv-x="1191" 
d="M330 1251v-1251h-197v1153q0 43 2 55q27 367 369 426q152 24 271 -13t186 -126q114 -150 79 -305q-30 -151 -190 -246q-19 -12 -39 -20q12 -2 45 -17q272 -126 248 -471q-12 -200 -159 -318t-392 -118h-76v68q166 -9 277 102q114 114 114 299q0 216 -102 324
q-101 110 -248 92v69q133 -35 230 56q98 88 98 264q0 134 -115 237q-102 92 -209 62q-106 -26 -162 -166q-30 -77 -30 -156z" />
    <glyph glyph-name="agrave" unicode="&#xe0;" horiz-adv-x="860" 
d="M690 0l-82 250h-465l-82 -250h-75l323 995q18 51 43 80q37 35 89 26.5t75 -52.5q14 -25 23 -54l335 -995h-184zM100 1460h273l135 -291h-160zM328 817l-164 -502h416l-156 504q-6 20 -27 58q-7 11 -20 11t-19 -11q-20 -25 -30 -60z" />
    <glyph glyph-name="aacute" unicode="&#xe1;" horiz-adv-x="860" 
d="M690 0l-82 250h-465l-82 -250h-75l323 995q18 51 43 80q37 35 89 26.5t75 -52.5q14 -25 23 -54l335 -995h-184zM348 1165l133 293h275l-248 -293h-160zM328 817l-164 -502h416l-156 504q-6 20 -27 58q-7 11 -20 11t-19 -11q-20 -25 -30 -60z" />
    <glyph glyph-name="acircumflex" unicode="&#xe2;" horiz-adv-x="860" 
d="M690 0l-82 250h-465l-82 -250h-75l323 995q18 51 43 80q37 35 89 26.5t75 -52.5q14 -25 23 -54l335 -995h-184zM766 1167h-211l-127 219l-129 -219h-211l209 291h260zM328 817l-164 -502h416l-156 504q-6 20 -27 58q-7 11 -20 11t-19 -11q-20 -25 -30 -60z" />
    <glyph glyph-name="atilde" unicode="&#xe3;" horiz-adv-x="860" 
d="M690 0l-82 250h-465l-82 -250h-75l323 995q18 51 43 80q37 35 89 26.5t75 -52.5q14 -25 23 -54l335 -995h-184zM240 1188q-2 -2 -2 -12h-115q0 6 4 38q47 232 252 168l27 -8l43 -14l61 -21q63 -20 91 -12t40 47q4 4 4 15h115q-6 -46 -6 -48q-47 -215 -252 -157l-43 12
l-31 10l-63 21q-101 34 -125 -39zM328 817l-164 -502h416l-156 504q-6 20 -27 58q-7 11 -20 11t-19 -11q-20 -25 -30 -60z" />
    <glyph glyph-name="adieresis" unicode="&#xe4;" horiz-adv-x="860" 
d="M690 0l-82 250h-465l-82 -250h-75l323 995q18 51 43 80q37 35 89 26.5t75 -52.5q14 -25 23 -54l335 -995h-184zM354 1325q20 -37 9 -78t-48 -61q-43 -22 -88 -10.5t-69 49.5q-20 37 -9 77t48 60q25 14 59 14q69 0 98 -51zM657 1188q-31 -17 -59 -17q-67 0 -98 54
q-20 37 -9 77t48 60q20 14 59 14q70 0 96 -51q20 -37 9 -77.5t-46 -59.5zM328 817l-164 -502h416l-156 504q-6 20 -27 58q-7 11 -20 11t-19 -11q-20 -25 -30 -60z" />
    <glyph glyph-name="aring" unicode="&#xe5;" horiz-adv-x="860" 
d="M690 0l-82 250h-465l-82 -250h-75l323 995q18 51 43 80q37 35 89 26.5t75 -52.5q14 -25 23 -54l335 -995h-184zM547 1217q-50 -51 -120.5 -51t-121.5 51q-49 52 -49 120q-3 52 29 95t78 62.5t98 12t86 -48.5q51 -51 51 -120.5t-51 -120.5zM328 817l-164 -502h416
l-156 504q-6 20 -27 58q-7 11 -20 11t-19 -11q-20 -25 -30 -60zM365 1403q-27 -27 -27 -64q-3 -35 24 -65q30 -25 64.5 -26t62 25t27.5 64q0 59 -55 82t-96 -16z" />
    <glyph glyph-name="ae" unicode="&#xe6;" horiz-adv-x="1234" 
d="M528 162v362h-217l-250 -524h-75l460 952q4 11 11 21q41 65 100 80q24 8 47 8h586v-66h-389q-50 0 -65 -14t-15 -61v-332h401v-64h-401v-372q0 -38 27 -62t73 -24h369v-66h-520q-80 0 -111 35t-31 127zM489 895l-149 -307h188v303q0 6 -4 18q-9 15 -20 4q-9 -3 -15 -18z
" />
    <glyph glyph-name="ccedilla" unicode="&#xe7;" horiz-adv-x="1083" 
d="M74 514q-1 213 101.5 355t287.5 186q185 39 326 0.5t227 -146.5l-31 -39q-84 104 -231 134q-206 43 -346 -91q-137 -134 -134 -405q1 -258 129 -380t355 -87q115 18 209 94q4 12 18 17l39 -33q-104 -104 -285 -139q-95 -16 -190 -5q-219 29 -344.5 172.5t-130.5 366.5z
M616 -285q3 9 0 17h-81v168h157v-156q0 -161 -131 -182q-3 0 -10 -1t-10 -1v82h12q60 9 63 73z" />
    <glyph glyph-name="egrave" unicode="&#xe8;" horiz-adv-x="854" 
d="M442 66h353v-66h-504q-158 0 -158 162v737q0 25 2 31q11 62 52.5 96.5t107.5 34.5h500v-66h-355q-4 0 -13 -1l-9 -1q-92 -12 -92 -96v-309h401v-64h-401v-354q0 -51 20.5 -72t77.5 -32h18zM166 1460h272l135 -291h-159z" />
    <glyph glyph-name="eacute" unicode="&#xe9;" horiz-adv-x="854" 
d="M442 66h353v-66h-504q-158 0 -158 162v737q0 25 2 31q11 62 52.5 96.5t107.5 34.5h500v-66h-355q-4 0 -13 -1l-9 -1q-92 -12 -92 -96v-309h401v-64h-401v-354q0 -51 20.5 -72t77.5 -32h18zM389 1165l133 293h275l-248 -293h-160z" />
    <glyph glyph-name="ecircumflex" unicode="&#xea;" horiz-adv-x="854" 
d="M442 66h353v-66h-504q-158 0 -158 162v737q0 25 2 31q11 62 52.5 96.5t107.5 34.5h500v-66h-355q-4 0 -13 -1l-9 -1q-92 -12 -92 -96v-309h401v-64h-401v-354q0 -51 20.5 -72t77.5 -32h18zM823 1167h-211l-127 219l-129 -219h-211l209 291h260z" />
    <glyph glyph-name="edieresis" unicode="&#xeb;" horiz-adv-x="854" 
d="M442 66h353v-66h-504q-158 0 -158 162v737q0 25 2 31q11 62 52.5 96.5t107.5 34.5h500v-66h-355q-4 0 -13 -1l-9 -1q-92 -12 -92 -96v-309h401v-64h-401v-354q0 -51 20.5 -72t77.5 -32h18zM412 1225q-35 -54 -99 -54q-63 0 -98 54q-20 37 -9 77t48 60q58 34 117 0
q39 -20 51.5 -61t-10.5 -76zM752 1225q-31 -54 -99 -54q-65 0 -96 54q-20 37 -9 77t48 60q58 34 117 0q38 -20 50 -61t-11 -76z" />
    <glyph glyph-name="igrave" unicode="&#xec;" horiz-adv-x="458" 
d="M133 0v1061h193v-1061h-193zM-94 1460h272l135 -291h-159z" />
    <glyph glyph-name="iacute" unicode="&#xed;" horiz-adv-x="458" 
d="M133 0v1061h193v-1061h-193zM154 1165l133 293h274l-248 -293h-159z" />
    <glyph glyph-name="icircumflex" unicode="&#xee;" horiz-adv-x="458" 
d="M133 0v1061h193v-1061h-193zM571 1167h-211l-127 219l-129 -219h-210l208 291h260z" />
    <glyph glyph-name="idieresis" unicode="&#xef;" horiz-adv-x="458" 
d="M135 0v1061h193v-1061h-193zM160 1225q-35 -54 -99 -54q-63 0 -98 54q-20 37 -9 77t48 60q58 34 117 0q39 -20 51.5 -61t-10.5 -76zM500 1225q-31 -54 -99 -54q-65 0 -96 54q-20 37 -9 77t48 60q58 34 117 0q38 -20 50 -61t-11 -76z" />
    <glyph glyph-name="ntilde" unicode="&#xf1;" horiz-adv-x="1040" 
d="M199 778v-778h-66v928q0 52 29 102q26 43 72.5 45.5t87.5 -35.5q23 -22 57 -69l414 -582q15 -20 28 -33q2 -2 10 -2q13 3 13 41v666h63v-983q0 -28 -14 -60q-10 -19 -30.5 -18.5t-37.5 20.5l-8 9l-22 32l-519 736l-38 43q-6 6 -17 2.5t-12 -13.5q-10 -23 -10 -51z
M360 1188q-2 -2 -2 -12h-114q0 6 4 38q47 232 252 168l26 -8l43 -14l62 -21q63 -20 91 -12t40 47q4 4 4 15h115q-2 -13 -3.5 -25t-2.5 -17t-1 -6q-47 -215 -251 -157l-43 12l-31 10l-64 21q-101 34 -125 -39z" />
    <glyph glyph-name="ograve" unicode="&#xf2;" horiz-adv-x="1347" 
d="M1204 365q-54 -184 -201.5 -290t-353.5 -106q-204 0 -350.5 105.5t-202.5 290.5q-24 80 -24 163q0 250 161 404q165 160 416 160q298 0 469 -222q169 -217 86 -505zM354 1460h273l135 -291h-160zM268 528q0 -56 17 -143q16 -76 51 -147q30 -67 82.5 -116.5t115.5 -72
t128.5 -24t127 26.5t105.5 81q84 90 121 252q64 276 -58 469q-120 190 -309 190q-160 0 -270 -137q-111 -138 -111 -379z" />
    <glyph glyph-name="oacute" unicode="&#xf3;" horiz-adv-x="1347" 
d="M1204 365q-54 -184 -201.5 -290t-353.5 -106q-204 0 -350.5 105.5t-202.5 290.5q-24 80 -24 163q0 250 161 404q165 160 416 160q298 0 469 -222q169 -217 86 -505zM584 1165l133 293h274l-248 -293h-159zM268 528q0 -56 17 -143q16 -76 51 -147q30 -67 82.5 -116.5
t115.5 -72t128.5 -24t127 26.5t105.5 81q84 90 121 252q64 276 -58 469q-120 190 -309 190q-160 0 -270 -137q-111 -138 -111 -379z" />
    <glyph glyph-name="ocircumflex" unicode="&#xf4;" horiz-adv-x="1347" 
d="M1204 365q-54 -184 -201.5 -290t-353.5 -106q-204 0 -350.5 105.5t-202.5 290.5q-24 80 -24 163q0 250 161 404q165 160 416 160q298 0 469 -222q169 -217 86 -505zM995 1167h-211l-127 219l-129 -219h-211l209 291h260zM268 528q0 -56 17 -143q16 -76 51 -147
q30 -67 82.5 -116.5t115.5 -72t128.5 -24t127 26.5t105.5 81q84 90 121 252q64 276 -58 469q-120 190 -309 190q-160 0 -270 -137q-111 -138 -111 -379z" />
    <glyph glyph-name="otilde" unicode="&#xf5;" horiz-adv-x="1347" 
d="M1204 365q-54 -184 -201.5 -290t-353.5 -106q-204 0 -350.5 105.5t-202.5 290.5q-24 80 -24 163q0 250 161 404q165 160 416 160q298 0 469 -222q169 -217 86 -505zM481 1188q-2 -2 -2 -12h-114q0 6 4 38q47 232 252 168l26 -8l43 -14l62 -21q63 -20 91 -12t40 47
q4 4 4 15h114q-6 -46 -6 -48q-47 -215 -252 -157l-43 12l-30 10l-64 21q-101 34 -125 -39zM268 528q0 -56 17 -143q16 -76 51 -147q30 -67 82.5 -116.5t115.5 -72t128.5 -24t127 26.5t105.5 81q84 90 121 252q64 276 -58 469q-120 190 -309 190q-160 0 -270 -137
q-111 -138 -111 -379z" />
    <glyph glyph-name="odieresis" unicode="&#xf6;" horiz-adv-x="1347" 
d="M1204 365q-54 -184 -201.5 -290t-353.5 -106q-204 0 -350.5 105.5t-202.5 290.5q-24 80 -24 163q0 250 161 404q165 160 416 160q298 0 469 -222q169 -217 86 -505zM584 1225q-31 -54 -97 -54q-70 0 -98 54q-20 37 -9 77t48 60q58 34 117 0q38 -20 50 -61t-11 -76z
M887 1188q-31 -17 -60 -17q-67 0 -98 54q-20 37 -8.5 77t47.5 60q25 14 59 14q70 0 99 -51q20 -37 9 -77.5t-48 -59.5zM268 528q0 -56 17 -143q16 -76 51 -147q30 -67 82.5 -116.5t115.5 -72t128.5 -24t127 26.5t105.5 81q84 90 121 252q64 276 -58 469q-120 190 -309 190
q-160 0 -270 -137q-111 -138 -111 -379z" />
    <glyph glyph-name="divide" unicode="&#xf7;" horiz-adv-x="1124" 
d="M446 207q0 49 33 82q41 35 84 35q50 0 82.5 -33t32.5 -84q0 -47 -35 -82q-31 -35 -80 -35t-84 35q-33 36 -33 82zM1036 414h-948v139h948v-139zM479 840q36 31 84 34q50 0 80 -34q35 -35 35 -82t-35 -82q-31 -35 -80 -35t-84 35q-32 32 -32 82t32 82z" />
    <glyph glyph-name="oslash" unicode="&#xf8;" horiz-adv-x="1306" 
d="M705 1094q101 -6 219 -60q7 -3 61 -35l100 111l72 -74l-92 -104q133 -139 154 -328q34 -285 -148 -473q-182 -185 -479 -164q-165 12 -297 111l-90 -98l-74 71l88 99q-129 141 -141 327q-21 284 155 457q178 175 472 160zM969 825l-588 -653l33 -43q107 -124 278 -100
q173 27 260 192q71 130 74 301q3 149 -57 303zM324 264l587 654l-26 32q-62 63 -148 84.5t-180 -4.5q-156 -47 -240 -235q-82 -190 -24 -433q9 -38 31 -98z" />
    <glyph glyph-name="ugrave" unicode="&#xf9;" horiz-adv-x="1026" 
d="M893 1061v-674q0 -206 -121 -315t-317 -82q-149 19 -235.5 122.5t-86.5 266.5v682h193v-682q0 -252 188 -299q133 -35 223 49t90 256v676h66zM240 1460h272l135 -291h-160z" />
    <glyph glyph-name="uacute" unicode="&#xfa;" horiz-adv-x="1026" 
d="M893 1061v-674q0 -206 -121 -315t-317 -82q-149 19 -235.5 122.5t-86.5 266.5v682h193v-682q0 -252 188 -299q133 -35 223 49t90 256v676h66zM475 1165l133 293h275l-248 -293h-160z" />
    <glyph glyph-name="ucircumflex" unicode="&#xfb;" horiz-adv-x="1026" 
d="M893 1061v-674q0 -206 -121 -315t-317 -82q-149 19 -235.5 122.5t-86.5 266.5v682h193v-682q0 -252 188 -299q133 -35 223 49t90 256v676h66zM879 1167h-211l-127 219l-129 -219h-211l209 291h260z" />
    <glyph glyph-name="udieresis" unicode="&#xfc;" horiz-adv-x="1026" 
d="M893 1061v-674q0 -206 -121 -315t-317 -82q-149 19 -235.5 122.5t-86.5 266.5v682h193v-682q0 -252 188 -299q133 -35 223 49t90 256v676h66zM477 1225q-31 -54 -98 -54q-68 0 -96 54q-23 37 -11.5 77t50.5 60q58 34 116 0q38 -20 50 -61t-11 -76zM819 1225
q-35 -54 -98 -54q-67 0 -98 54q-20 37 -8.5 75.5t49.5 61.5q57 29 114 0q38 -23 49.5 -62.5t-8.5 -74.5z" />
    <glyph glyph-name="ydieresis" unicode="&#xff;" horiz-adv-x="1038" 
d="M1067 1061l-719 -1489h-59l219 463l-537 1026h205l430 -821l398 821h63zM504 1225q-35 -54 -98 -54q-64 0 -99 54q-20 37 -9 77t48 60q58 34 117 0q39 -20 51.5 -61t-10.5 -76zM844 1225q-31 -54 -99 -54q-65 0 -96 54q-20 37 -9 77t48 60q58 34 117 0q38 -20 50 -61
t-11 -76z" />
    <glyph glyph-name="dotlessi" unicode="&#x131;" horiz-adv-x="458" 
d="M133 0v1061h193v-1061h-193z" />
    <glyph glyph-name="OE" unicode="&#x152;" horiz-adv-x="2144" 
d="M94 958q49 179 161.5 305t266.5 177q207 70 373 60t276.5 -69t163.5 -155v199h709v-66h-504v-612h461v-64h-461v-667h504v-66h-709v190q-36 -70 -108.5 -122t-175.5 -81.5t-244 -21.5t-297 60q-251 83 -377 350q-125 265 -39 583zM279 723q0 -86 22 -193
q53 -235 186 -361t318 -126q219 0 371 186q155 186 155 508t-155 508q-153 187 -371 187q-221 0 -375 -189q-151 -189 -151 -520z" />
    <glyph glyph-name="oe" unicode="&#x153;" horiz-adv-x="1718" 
d="M74 537q3 258 196 421q195 164 461 127q175 -21 281 -116q27 92 162 92h499v-66h-389q-47 0 -62.5 -15t-15.5 -60v-332h402v-64h-402v-372q0 -37 28 -61.5t71 -24.5h368v-66h-520q-120 0 -141 90q-153 -159 -457 -113q-220 35 -352 185q-132 153 -129 375zM647 1044
q-175 2 -277 -129.5t-102 -377.5q0 -250 99 -380t280 -128q157 0 260.5 115t122.5 319q6 71 0 145q-23 210 -125 323t-258 113z" />
    <glyph glyph-name="Ydieresis" unicode="&#x178;" horiz-adv-x="1024" 
d="M612 741v-741h-206v748l-435 727h236l377 -658l391 658h78zM451 1622q-35 -53 -99 -53q-63 0 -98 53q-20 37 -9 77t48 60q59 35 117 0q39 -20 51.5 -61t-10.5 -76zM791 1622q-30 -53 -99 -53q-66 0 -96 53q-20 37 -9 77t48 60q59 35 117 0q38 -20 50 -61t-11 -76z" />
    <glyph glyph-name="florin" unicode="&#x192;" horiz-adv-x="784" 
d="M0 -430q-10 -2 -53 -2h-82l8 61q46 6 94 9q60 5 89.5 28t35.5 72l238 1700q53 164 286 182q10 2 54 2h82l-9 -61l-94 -7q-113 -9 -125 -102l-55 -391h217l-10 -66h-217l-172 -1243q-6 -57 -88 -121q-69 -52 -199 -61z" />
    <glyph glyph-name="circumflex" unicode="&#x2c6;" horiz-adv-x="706" 
d="M692 1167h-211l-127 219l-129 -219h-211l209 291h260z" />
    <glyph glyph-name="caron" unicode="&#x2c7;" horiz-adv-x="706" 
d="M481 1456h211l-209 -291h-260l-209 291h211l129 -215z" />
    <glyph glyph-name="breve" unicode="&#x2d8;" horiz-adv-x="651" 
d="M551 1268q-100 -103 -224 -102t-227 104q-77 77 -86 190h136q5 -56 43.5 -95.5t99.5 -51.5q33 -6 65 0q62 12 101 52t43 95h135q-9 -112 -86 -192z" />
    <glyph glyph-name="ring" unicode="&#x2da;" horiz-adv-x="370" 
d="M305 1217q-49 -51 -120 -51t-122 51q-49 52 -49 120q-3 52 29 95t78 62.5t98 12t86 -48.5q51 -51 51 -120.5t-51 -120.5zM123 1403q-27 -27 -27 -64q-3 -34 25 -65q30 -25 64 -26t61.5 24.5t27.5 64.5q0 59 -55 82t-96 -16z" />
    <glyph glyph-name="tilde" unicode="&#x2dc;" horiz-adv-x="665" 
d="M131 1188q-2 -2 -2 -12h-115q0 6 4 38q47 232 252 168l27 -8l43 -14l61 -21q63 -20 91 -12t40 47q5 5 5 15h114q-6 -46 -6 -48q-47 -215 -252 -157l-43 12l-31 10l-63 21q-101 34 -125 -39z" />
    <glyph glyph-name="endash" unicode="&#x2013;" horiz-adv-x="1241" 
d="M102 651v172h1033v-172h-1033z" />
    <glyph glyph-name="emdash" unicode="&#x2014;" horiz-adv-x="2039" 
d="M1978 829v-151h-1917v151h1917z" />
    <glyph glyph-name="quoteleft" unicode="&#x2018;" horiz-adv-x="428" 
d="M195 1178l143 194l18 25l47 59l39 47l-14 -55l-20 -72l-31 -106q-34 -116 -49 -164t-34 -99t-36 -77q-21 -37 -48 -44.5t-60 7.5q-69 18 -59.5 87.5t104.5 197.5z" />
    <glyph glyph-name="quoteright" unicode="&#x2019;" horiz-adv-x="428" 
d="M233 1219l-143 -195l-18 -25l-47 -59l-39 -47l14 55l20 72l31 106q80 274 117 338q41 65 108 39q70 -21 61 -88t-104 -196z" />
    <glyph glyph-name="quotesinglbase" unicode="&#x201a;" horiz-adv-x="428" 
d="M233 -55l-143 -195l-18 -24l-47 -60l-39 -47l14 55l20 72l31 107q79 275 117 340q40 64 108 38q70 -21 61 -87.5t-104 -198.5z" />
    <glyph glyph-name="quotedblleft" unicode="&#x201c;" horiz-adv-x="655" 
d="M381 1149l143 194l19 25l47 59l39 48l-15 -56l-20 -71l-31 -107q-81 -282 -119 -342q-37 -63 -106 -37q-70 21 -61 88t104 199zM135 1149l144 194l18 25l47 59l39 48l-14 -56l-21 -71l-31 -107q-82 -285 -118 -342q-37 -64 -107 -37q-70 21 -61 88t104 199z" />
    <glyph glyph-name="quotedblright" unicode="&#x201d;" horiz-adv-x="655" 
d="M223 1204l-143 -194l-19 -25l-47 -59l-39 -47l15 55l20 72l31 106q79 275 117 340q41 65 108 39q70 -21 61 -88t-104 -199zM469 1204l-143 -194l-19 -25l-47 -59l-39 -47l15 55l20 72l31 106q80 278 116 340q41 65 109 39q70 -21 61 -88t-104 -199z" />
    <glyph glyph-name="quotedblbase" unicode="&#x201e;" horiz-adv-x="655" 
d="M233 -55l-143 -195l-18 -24l-47 -60l-39 -47l14 55l20 72l31 107q79 275 117 340q40 64 108 38q70 -21 61 -87.5t-104 -198.5zM479 -55l-143 -195l-19 -24l-47 -60l-39 -47l15 55l20 72l31 107q79 275 117 340q40 64 108 38q70 -21 61 -87.5t-104 -198.5z" />
    <glyph glyph-name="ellipsis" unicode="&#x2026;" horiz-adv-x="2039" 
d="M250 16q-37 38 -37 92t37 91q38 38 91.5 38t90.5 -38q38 -37 38 -91t-38 -92q-37 -37 -90.5 -37t-91.5 37zM932 16q-37 38 -37 92t37 91q38 38 91.5 38t90.5 -38q38 -37 38 -91t-38 -92q-37 -37 -90.5 -37t-91.5 37zM1614 16q-37 38 -37 92t37 91q38 38 91.5 38t90.5 -38
q38 -37 38 -91t-38 -92q-37 -37 -90.5 -37t-91.5 37z" />
    <glyph glyph-name="guilsinglleft" unicode="&#x2039;" horiz-adv-x="610" 
d="M537 981l-312 -440l312 -441l-121 -129l-342 480v180l342 479z" />
    <glyph glyph-name="guilsinglright" unicode="&#x203a;" horiz-adv-x="610" 
d="M195 1110l342 -479v-180l-342 -480l-121 129l311 441l-311 440z" />
    <glyph glyph-name="Euro" unicode="&#x20ac;" horiz-adv-x="1576" 
d="M440 700h772l-30 -73h-738q34 -334 246 -475q213 -139 522 -48q95 26 193 99q21 14 35 28l51 -47q-197 -197 -578 -200q-281 -3 -479 174q-195 177 -229 469h-148l31 73h113q-2 8 -2 35q0 31 2 39h-144l31 74h117q34 318 256 491q223 174 569 150q122 -9 248 -64
q115 -53 209 -141l-41 -51l-43 31q-113 78 -205 104q-305 92 -514 -51q-212 -141 -242 -469h834l-31 -76l-807 2v-33q0 -31 2 -41z" />
    <glyph glyph-name="trademark" unicode="&#x2122;" horiz-adv-x="1492" 
d="M260 737v635h-164v103h445v-103h-166v-635h-115zM705 1167l-74 -430h-115l141 756h62l205 -467q29 -68 32 -129q3 59 33 129l205 467h61l142 -756h-115l-74 430l-4 23l-2 18q-3 42 2 72l-20 -72l-10 -26l-3 -11l-194 -450h-41l-195 450l-4 15l-8 24l-20 70q5 -30 2 -72
l-2 -18z" />
    <glyph glyph-name="Euro_master1" unicode="&#xec04;" horiz-adv-x="1576" 
d="M1030 1489q122 -9 248 -64q115 -53 209 -141l-41 -51l-43 31q-113 78 -205 104q-327 102 -545 -74q-218 -173 -215 -553q3 -390 217 -565q219 -173 557 -72q95 26 193 99q21 14 35 28l51 -47q-197 -197 -578 -200q-312 -3 -512 206q-202 211 -202 545q0 371 225 576
q227 205 606 178zM88 848h1188l-31 -76l-1188 2zM88 700h1124l-30 -73h-1125z" />
    <glyph glyph-name="CR.001" horiz-adv-x="681" 
 />
    <glyph glyph-name="Euro.alt" horiz-adv-x="1574" 
d="M1489 1190l-59 -125q-79 98 -202 153.5t-270 55.5q-187 0 -331 -111q-143 -107 -193 -278h912l-62 -129h-878l-2 -30t-2 -24.5t-1 -13.5t1 -12.5t2 -22t2 -26.5h819l-62 -129h-729q56 -183 201.5 -288.5t343.5 -105.5q134 0 253 54t198 149v-174q-88 -70 -211.5 -114
t-249.5 -44q-250 0 -439 142q-185 139 -241 381h-232l62 129h145q-2 18 -2 63q0 48 2 66h-207l62 129h170q56 241 243 379q192 139 447 139q149 0 289 -58t221 -155z" />
  </font>
</defs>
</svg>
